<?xml version="1.0" standalone="no"?>
<!DOCTYPE svg PUBLIC "-//W3C//DTD SVG 1.1//EN" "http://www.w3.org/Graphics/SVG/1.1/DTD/svg11.dtd" >
<svg>
<metadata>
Created by FontForge 20110222 at Wed Jun 19 11:22:32 2013
 By Orthosie Webhosting
2002 - Iconian Fonts: www.iconian.com
</metadata>
<defs>
<font id="RadioSpaceRegular" horiz-adv-x="1401" >
  <font-face 
    font-family="RadioSpaceRegular"
    font-weight="400"
    font-stretch="normal"
    units-per-em="2048"
    panose-1="2 11 8 7 2 2 3 6 2 4"
    ascent="1638"
    descent="-410"
    x-height="743"
    cap-height="1292"
    bbox="-201 -553 2540 1851"
    underline-thickness="143"
    underline-position="-99"
    unicode-range="U+0020-2219"
  />
<missing-glyph horiz-adv-x="1024" 
 />
    <glyph glyph-name=".notdef" horiz-adv-x="1024" 
 />
    <glyph glyph-name=".null" horiz-adv-x="0" 
 />
    <glyph glyph-name="nonmarkingreturn" horiz-adv-x="1024" 
 />
    <glyph glyph-name="space" unicode=" " horiz-adv-x="722" 
 />
    <glyph glyph-name="exclam" unicode="!" horiz-adv-x="475" 
d="M172 549h197v743h-197v-743zM172 205v-205h197v205h-197z" />
    <glyph glyph-name="quotedbl" unicode="&#x22;" horiz-adv-x="805" 
d="M696 797v495h-200v-221h92zM369 797v495h-201v-221h92z" />
    <glyph glyph-name="FL0024h" unicode="#" horiz-adv-x="1563" 
d="M1432 541h-295v215h297v200h-297v336h-197v-336h-295v336h-196v-336h-277v-200h768v-215h-768v-205h277v-336h196v336h295v-336h197v336h295v205z" />
    <glyph glyph-name="dollar" unicode="$" 
d="M637 549h-166h-8q-291 0 -291 235v289q0 219 281 219h839v-200h-461v-344h152q309 0 309 -228v-305q0 -215 -280 -215h-840v205h465v344zM831 205h152h16q88 0 88 55v232q0 53 -104 53h-152v-340zM637 748v344h-166q-102 0 -102 -62v-229q0 -53 102 -53h166z" />
    <glyph glyph-name="FL0025h" unicode="%" horiz-adv-x="1958" 
d="M485 0l916 1292h205l-924 -1292h-197zM371 543q-160 0 -160 127v454q0 129 160 129h297q159 0 159 -129v-454q0 -127 -159 -127h-297zM655 674q43 0 43 18v412q0 18 -43 18h-270q-43 0 -43 -18v-412q0 -18 43 -18h270zM1364 16q-160 0 -160 127v455q0 129 160 129h297
q160 0 160 -129v-455q0 -127 -160 -127h-297zM1649 147q43 0 43 19v412q0 18 -43 18h-271q-43 0 -43 -18v-412q0 -19 43 -19h271z" />
    <glyph glyph-name="ampersand" unicode="&#x26;" 
d="M621 780h-453v-270h453v-510h667v780h-465v512h-202v-512zM823 217v293h256v-293h-256z" />
    <glyph glyph-name="quotesingle" unicode="'" horiz-adv-x="475" 
d="M369 797v495h-201v-221h92z" />
    <glyph glyph-name="parenleft" unicode="(" horiz-adv-x="852" 
d="M735 205v-205h-286q-281 0 -281 215v858q0 219 281 219h286v-200h-264q-102 0 -102 -62v-770q0 -59 102 -59z" />
    <glyph glyph-name="parenright" unicode=")" horiz-adv-x="852" 
d="M168 205v-205h289q278 0 278 215v858q0 219 -278 219h-289v-200h264q105 0 105 -62v-770q0 -59 -105 -59z" />
    <glyph glyph-name="asterisk" unicode="*" horiz-adv-x="1028" 
d="M543 801l147 -297l131 106l-213 248l303 66l-51 168l-278 -148l34 342h-149l33 -342l-279 148l-49 -168l299 -66l-211 -248l133 -106z" />
    <glyph glyph-name="plus" unicode="+" horiz-adv-x="1040" 
d="M449 549v-268h202v268h273v199h-273v264h-200v-264h-279v-201z" />
    <glyph glyph-name="comma" unicode="," horiz-adv-x="475" 
d="M369 -276v495h-201v-219h92z" />
    <glyph glyph-name="hyphen" unicode="-" horiz-adv-x="1040" 
d="M924 643v105h-752v-201h752v96z" />
    <glyph glyph-name="period" unicode="." horiz-adv-x="475" 
d="M369 0v219h-201v-219h201z" />
    <glyph glyph-name="slash" unicode="/" 
d="M369 0h-197l915 1292h205z" />
    <glyph glyph-name="zero" unicode="0" 
d="M731 201h252q104 0 104 59v770q0 62 -104 62h-512q-102 0 -102 -62v-770q0 -59 102 -59h260zM735 0h-286q-281 0 -281 215v858q0 219 281 219h559q280 0 280 -219v-858q0 -215 -280 -215h-273z" />
    <glyph glyph-name="one" unicode="1" horiz-adv-x="475" 
d="M369 743v-743h-197v1292h197v-549z" />
    <glyph glyph-name="two" unicode="2" 
d="M731 201h-354v291q0 53 102 53h512q301 0 301 239v289q0 219 -280 219h-840v-200h819q105 0 105 -62v-229q0 -53 -105 -53h-512q-307 0 -307 -228v-520h1120v201h-561z" />
    <glyph glyph-name="three" unicode="3" 
d="M731 201h-559v-201h840q280 0 280 215v858q0 219 -280 219h-840v-200h819q105 0 105 -62v-282h-924v-201h924v-287q0 -59 -105 -59h-260z" />
    <glyph glyph-name="four" unicode="4" 
d="M377 1292v-491q0 -53 102 -53h617v544h196v-1292h-196v549h-643q-281 0 -281 217v526h205z" />
    <glyph glyph-name="five" unicode="5" 
d="M983 201q104 0 104 59v232q0 53 -104 53h-512q-299 0 -299 239v508h1120v-200h-923v-291q0 -53 102 -53h512q309 0 309 -228v-305q0 -215 -280 -215h-840v199z" />
    <glyph glyph-name="six" unicode="6" 
d="M731 201h252q104 0 104 59v232q0 53 -104 53h-614v-285q0 -59 102 -59h260zM731 1092h-260q-102 0 -102 -62v-282h614q309 0 309 -228v-305q0 -215 -280 -215h-559q-281 0 -281 215v858q0 219 281 219h839v-200h-561z" />
    <glyph glyph-name="seven" unicode="7" 
d="M725 1092h-557v200h840q280 0 280 -215v-1077h-201v1030q0 62 -104 62h-258z" />
    <glyph glyph-name="eight" unicode="8" 
d="M731 201h252q104 0 104 59v285h-718v-285q0 -59 102 -59h260zM739 0h-286q-281 0 -281 215v858q0 219 281 219h559q280 0 280 -219v-858q0 -215 -280 -215h-273zM727 1092h-256q-102 0 -102 -62v-282h718v282q0 62 -104 62h-256z" />
    <glyph glyph-name="nine" unicode="9" 
d="M731 1092h-252q-102 0 -102 -62v-229q0 -53 102 -53h617v282q0 62 -105 62h-260zM991 201q105 0 105 59v285h-617q-307 0 -307 227v305q0 215 281 215h559q280 0 280 -215v-860q0 -217 -280 -217h-840v201h819z" />
    <glyph glyph-name="colon" unicode=":" horiz-adv-x="475" 
d="M369 0v219h-201v-219h201zM168 600v-209h201v209h-201z" />
    <glyph glyph-name="semicolon" unicode=";" horiz-adv-x="475" 
d="M168 600v-209h201v209h-201zM369 -276v495h-201v-219h92z" />
    <glyph glyph-name="less" unicode="&#x3c;" horiz-adv-x="852" 
d="M735 205v-205h-286q-281 0 -281 215v858q0 219 281 219h286v-200h-264q-102 0 -102 -62v-770q0 -59 102 -59z" />
    <glyph glyph-name="equal" unicode="=" horiz-adv-x="1040" 
d="M924 844v102h-752v-201h752v99zM924 444v103h-752v-201h752v98z" />
    <glyph glyph-name="greater" unicode="&#x3e;" horiz-adv-x="852" 
d="M168 205v-205h289q278 0 278 215v858q0 219 -278 219h-289v-200h264q105 0 105 -62v-770q0 -59 -105 -59z" />
    <glyph glyph-name="question" unicode="?" 
d="M172 416h205v76q0 53 102 53h512q301 0 301 239v289q0 219 -280 219h-840v-200h819q105 0 105 -62v-229q0 -53 -105 -53h-512q-307 0 -307 -228v-104zM369 0v219h-201v-219h201z" />
    <glyph glyph-name="at" unicode="@" horiz-adv-x="1573" 
d="M369 651v-252q0 -102 59 -102h770q62 0 62 102v512q0 105 -62 105h-770q-59 0 -59 -105v-260zM977 545v-137h-361q-194 0 -194 147v209q0 145 194 145h586v-501h-141v366h-430q-72 0 -72 -35v-155q0 -39 72 -39h346zM981 1217h260q219 0 219 -281v-559q0 -281 -219 -281
h-858q-215 0 -215 281v559q0 281 215 281h598z" />
    <glyph glyph-name="A" unicode="A" 
d="M1087 0v545h-718v-545h-197v748h915v282q0 62 -104 62h-811q0 200 281 200h559q280 0 280 -219v-1073h-205z" />
    <glyph glyph-name="B" unicode="B" 
d="M731 201h252q104 0 104 59v285h-718v-344h362zM727 1092h-555v200h840q280 0 280 -219v-858q0 -215 -280 -215h-840v748h915v282q0 62 -104 62h-256z" />
    <glyph glyph-name="C" unicode="C" 
d="M731 201h557v-201h-839q-281 0 -281 215v858q0 219 281 219h839v-200h-817q-102 0 -102 -62v-770q0 -59 102 -59h260z" />
    <glyph glyph-name="D" unicode="D" 
d="M475 201v-201h533q280 0 280 215v858q0 219 -280 219h-840v-1292h201v1092h614q104 0 104 -62v-770q0 -59 -104 -59h-508z" />
    <glyph glyph-name="E" unicode="E" 
d="M731 201h561v-201h-839q-281 0 -281 215v858q0 219 281 219h839v-200h-821q-102 0 -102 -62v-282h923v-201h-923v-287q0 -59 102 -59h260z" />
    <glyph glyph-name="F" unicode="F" 
d="M369 0h-197v1073q0 219 281 219h839v-200h-821q-102 0 -102 -62v-282h923v-201h-923v-547z" />
    <glyph glyph-name="G" unicode="G" 
d="M731 201h252q104 0 104 59v387h201v-432q0 -215 -280 -215h-559q-281 0 -281 215v858q0 219 281 219h839v-200h-817q-102 0 -102 -62v-770q0 -59 102 -59h260z" />
    <glyph glyph-name="H" unicode="H" 
d="M1087 0v545h-718v-545h-197v1292h197v-544h718v544h205v-1292h-205z" />
    <glyph glyph-name="I" unicode="I" horiz-adv-x="475" 
d="M369 743v-743h-197v1292h197v-549z" />
    <glyph glyph-name="J" unicode="J" 
d="M725 201h-557v-201h840q280 0 280 215v1077h-201v-1032q0 -59 -104 -59h-258z" />
    <glyph glyph-name="K" unicode="K" 
d="M1087 0h205v526q0 217 -280 217h-84v287q0 62 104 62h264v200h-288q-281 0 -281 -215v-334h-358v549h-197v-1292h197v545h614q104 0 104 -53v-492z" />
    <glyph glyph-name="L" unicode="L" 
d="M731 201h557v-201h-839q-281 0 -281 215v1077h201v-1032q0 -59 102 -59h260z" />
    <glyph glyph-name="M" unicode="M" horiz-adv-x="1524" 
d="M793 1094h-322q-102 0 -102 -54v-1040h-197v1075q0 217 281 217h684q278 0 278 -217v-1075h-203v1040q0 54 -104 54h-315zM696 977h197v-977h-197v977z" />
    <glyph glyph-name="N" unicode="N" 
d="M1087 0v1030q0 62 -104 62h-512q-102 0 -102 -62v-1030h-201v1073q0 219 281 219h559q280 0 280 -219v-1073h-201z" />
    <glyph glyph-name="O" unicode="O" 
d="M731 201h252q104 0 104 59v770q0 62 -104 62h-512q-102 0 -102 -62v-770q0 -59 102 -59h260zM735 0h-286q-281 0 -281 215v858q0 219 281 219h559q280 0 280 -219v-858q0 -215 -280 -215h-273z" />
    <glyph glyph-name="P" unicode="P" 
d="M1022 547h-653v-547h-197v748h811q104 0 104 53v229q0 62 -104 62h-811v200h840q282 0 284 -217v-315q0 -209 -274 -213z" />
    <glyph glyph-name="Q" unicode="Q" 
d="M637 236v401h194v-338q0 -94 76 -96h76q104 0 104 57v770q0 62 -104 62h-512q-102 0 -102 -62v-1030q-201 0 -201 215v858q0 219 281 219h559q280 0 280 -219v-858q0 -215 -280 -215h-160q-211 0 -211 236z" />
    <glyph glyph-name="R" unicode="R" 
d="M1296 205h-280q-88 0 -88 55v287h94q274 4 274 213v315q0 217 -284 217h-840v-200h811q104 0 104 -62v-229q0 -53 -104 -53h-811v-748h197v547h358v-332q0 -215 281 -215h288v205z" />
    <glyph glyph-name="S" unicode="S" 
d="M731 201h-559v-201h840q280 0 280 215v305q0 228 -309 228h-512q-102 0 -102 53v229q0 62 102 62h821v200h-839q-281 0 -281 -219v-289q0 -239 299 -239h512q104 0 104 -53v-232q0 -59 -104 -59h-252z" />
    <glyph glyph-name="T" unicode="T" 
d="M1288 1092h-1120v200h1120v-200zM637 977h194v-977h-194v977z" />
    <glyph glyph-name="U" unicode="U" 
d="M731 201h252q104 0 104 59v1032h201v-1077q0 -215 -280 -215h-559q-281 0 -281 215v1077h201v-1032q0 -59 102 -59h260z" />
    <glyph glyph-name="V" unicode="V" 
d="M731 201l356 831v260h201v-311l-457 -981h-194l-469 981v311h201v-262z" />
    <glyph glyph-name="W" unicode="W" horiz-adv-x="1524" 
d="M1108 201q104 0 104 51v1040h203v-1075q0 -217 -278 -217h-684q-281 0 -281 217v1075h197v-1040q0 -51 92 -51h647zM696 315v977h197v-977h-197z" />
    <glyph glyph-name="X" unicode="X" horiz-adv-x="1540" 
d="M1427 205v-205h-286q-281 0 -281 215v862q0 215 281 215h286v-200h-264q-102 0 -102 -62v-770q0 -55 86 -55h16h264zM172 205h264h17q88 0 88 55v770q0 62 -105 62h-264v200h289q278 0 278 -215v-862q0 -215 -278 -215h-289v205z" />
    <glyph glyph-name="Y" unicode="Y" 
d="M995 201q97 0 101 75v273h-643q-281 0 -281 217v526h205v-491q0 -53 102 -53h617v544h196v-1073q0 -219 -272 -219h-840v201h815z" />
    <glyph glyph-name="Z" unicode="Z" 
d="M479 201h813v-201h-1120v215l832 877h-832v200h1120v-219z" />
    <glyph glyph-name="bracketleft" unicode="[" horiz-adv-x="852" 
d="M735 205h-264q-102 -6 -102 55v770q0 62 102 62h264v200h-286q-281 0 -281 -219v-858q0 -215 281 -215h286v205z" />
    <glyph glyph-name="backslash" unicode="\" 
d="M1096 0h196l-915 1292h-205z" />
    <glyph glyph-name="bracketright" unicode="]" horiz-adv-x="852" 
d="M168 205h264q105 -6 105 55v770q0 62 -105 62h-264v200h289q278 0 278 -219v-858q0 -215 -278 -215h-289v205z" />
    <glyph glyph-name="asciicircum" unicode="^" horiz-adv-x="831" 
 />
    <glyph glyph-name="underscore" unicode="_" horiz-adv-x="1184" 
d="M1182 -90h-1180v-201h1180v201z" />
    <glyph glyph-name="FL0060h" unicode="`" horiz-adv-x="569" 
d="M489 809l-229 262h-92v221h201z" />
    <glyph glyph-name="FL0061h" unicode="a" 
d="M864 205h-391q-8 0 -16 1t-13 1q-75 0 -75 53v232q0 53 102 53h616v-545h205v743h-839q-281 0 -281 -217v-309q0 -217 281 -217h411v205z" />
    <glyph glyph-name="b" unicode="b" 
d="M731 201h252q104 0 104 59v232q0 53 -104 53h-811v747h197v-549h643q280 0 280 -217v-309q0 -217 -280 -217h-840v203z" />
    <glyph glyph-name="c" unicode="c" 
d="M731 201h561v-201h-839q-281 0 -281 217v309q0 217 281 217h839v-196h-821q-102 0 -102 -55v-232q0 -59 102 -59h260z" />
    <glyph glyph-name="d" unicode="d" 
d="M731 201h-252q-102 0 -102 59v232q0 53 102 53h813v747h-196v-549h-643q-281 0 -281 -217v-309q0 -217 281 -217h839v203z" />
    <glyph glyph-name="e" unicode="e" 
d="M731 201h561v-201h-839q-281 0 -281 217v309q0 217 281 217h559q280 0 280 -188l-405 -262h-346l405 254h-475q-102 -4 -102 -55v-232q0 -59 102 -59h260z" />
    <glyph glyph-name="f" unicode="f" 
d="M731 543h-557q0 200 279 200h839v-200h-561zM1292 201v-201h-923v-549h-197v750h1120z" />
    <glyph glyph-name="g" unicode="g" 
d="M731 543h-252q-102 0 -102 -60v-231q0 -53 102 -53h813v-748h-196v549h-643q-281 0 -281 217v309q0 217 281 217h839v-204z" />
    <glyph glyph-name="h" unicode="h" 
d="M1087 0v492q0 53 -104 53h-614v-545h-197v1292h197v-549h643q280 0 280 -217v-526h-205z" />
    <glyph glyph-name="i" unicode="i" horiz-adv-x="475" 
d="M172 743h197v-743h-197v743zM172 1087v205h197v-205h-197z" />
    <glyph glyph-name="j" unicode="j" horiz-adv-x="475" 
d="M172 1087v205h197v-205h-197zM369 -16v-322q0 -215 -281 -215h-289v205h273q96 0 100 80v1011h197v-759z" />
    <glyph glyph-name="k" unicode="k" 
d="M1087 0h205v526q0 217 -280 217h-84v334h-201v-334h-358v549h-197v-1292h197v545h614q104 0 104 -53v-492z" />
    <glyph glyph-name="l" unicode="l" horiz-adv-x="475" 
d="M369 743v-743h-197v1292h197v-549z" />
    <glyph glyph-name="m" unicode="m" horiz-adv-x="1524" 
d="M793 547h-322q-102 -4 -102 -55v-492h-197v526q0 217 281 217h684q278 0 278 -217v-526h-203v492q0 53 -104 53zM696 438h197v-438h-197v438z" />
    <glyph glyph-name="n" unicode="n" 
d="M1087 0v492q0 53 -104 53h-512q-102 0 -102 -53v-492h-197v526q0 217 281 217h559q280 0 280 -217v-526h-205z" />
    <glyph glyph-name="o" unicode="o" 
d="M731 201h252q104 0 104 59v232q0 53 -104 53h-512q-102 0 -102 -53v-232q0 -59 102 -59h260zM739 0h-286q-281 0 -281 217v309q0 217 281 217h559q280 0 280 -217v-309q0 -217 -280 -217h-273z" />
    <glyph glyph-name="p" unicode="p" 
d="M731 543h252q104 0 104 -60v-231q0 -53 -104 -53h-811v-748h197v549h643q280 0 280 217v309q0 217 -280 217h-840v-198z" />
    <glyph glyph-name="q" unicode="q" 
d="M731 543h-252q-102 0 -102 -60v-231q0 -53 102 -53h813v-547h215v-203h-194h-217v551h-643q-281 0 -281 217v309q0 217 281 217h839v-198z" />
    <glyph glyph-name="r" unicode="r" 
d="M369 0h-197v526q0 217 281 217h839v-196h-821q-102 0 -102 -55v-492z" />
    <glyph glyph-name="s" unicode="s" 
d="M172 199v-199h840q280 0 280 190l-717 359l717 -2v196h-839q-281 0 -281 -188l713 -354z" />
    <glyph glyph-name="t" unicode="t" 
d="M369 743h923v-196h-923v-287q0 -59 102 -59h817v-201h-839q-281 0 -281 215v1077h201v-549z" />
    <glyph glyph-name="u" unicode="u" 
d="M731 201h252q104 0 104 59v483h205v-526q0 -217 -280 -217h-559q-281 0 -281 217v526h197v-483q0 -59 102 -59h260z" />
    <glyph glyph-name="v" unicode="v" 
d="M731 201l356 291v251h205v-323l-504 -420h-116l-500 420v323h197v-251z" />
    <glyph glyph-name="w" unicode="w" horiz-adv-x="1524" 
d="M788 201h-317h-10q-92 0 -92 51v491h-197v-526q0 -217 281 -217h684q278 0 278 217v526h-203v-491q0 -53 -104 -53zM696 305h197v438h-197v-438z" />
    <glyph glyph-name="x" unicode="x" 
d="M1012 125l-840 430v188h281v-127l839 -426v-190h-280v125zM403 307l213 -98l-163 -80v-129h-281v190zM1061 436l-213 101l164 79v127h280v-188z" />
    <glyph glyph-name="y" unicode="y" 
d="M1096 743h196v-1292h-196v549h-643q-281 0 -281 217v526h205v-491q0 -53 102 -53h617v544z" />
    <glyph glyph-name="z" unicode="z" 
d="M1292 199h-723l723 356v188h-1120v-196h707l-707 -357v-190h1120v199z" />
    <glyph glyph-name="braceleft" unicode="{" horiz-adv-x="852" 
d="M735 205v-205h-286q-281 0 -281 215v858q0 219 281 219h286v-200h-264q-102 0 -102 -62v-770q0 -59 102 -59z" />
    <glyph glyph-name="bar" unicode="|" horiz-adv-x="424" 
d="M311 1307h-149v-1342h149v1342z" />
    <glyph glyph-name="braceright" unicode="}" horiz-adv-x="852" 
d="M168 205v-205h289q278 0 278 215v858q0 219 -278 219h-289v-200h264q105 0 105 -62v-770q0 -59 -105 -59z" />
    <glyph glyph-name="FL007Eh" unicode="~" horiz-adv-x="1020" 
d="M727 737v-86q-2 -45 -104 -45h-144q-280 0 -280 -205v-110h194v80q2 51 105 51h143q281 0 281 205v110h-195z" />
    <glyph glyph-name="Ccedilla" unicode="&#xa0;" horiz-adv-x="1583" 
 />
    <glyph glyph-name="FL00A1h" unicode="&#xa1;" horiz-adv-x="475" 
d="M369 741v-743h-197v743h197zM369 1085h-197v205h197v-205z" />
    <glyph glyph-name="FL00A2h" unicode="&#xa2;" 
d="M866 459v346h414v196h-414v289h-196v-289h-230q-280 0 -280 -217v-309q0 -217 280 -217h230v-260h196v260h414v201h-414zM356 518v232q0 55 103 55h211v-346h-211q-103 0 -103 59z" />
    <glyph glyph-name="FL00A3h" unicode="&#xa3;" horiz-adv-x="1229" 
d="M102 -362v1806h1024v-1806h-1024zM217 -248h795v1577h-795v-1577z" />
    <glyph glyph-name="dagger" unicode="&#xa4;" horiz-adv-x="1524" 
d="M1374 203l-198 200q20 39 33.5 67t19.5 48q12 45 12 125t-12 123q-10 41 -53 113l198 200l-135 135l-201 -200q-65 43 -110 55q-47 12 -127 12q-131 0 -242 -67l-201 200l-135 -135l199 -205q-64 -106 -64 -227q0 -123 66 -244l-201 -200l135 -135l201 198
q127 -65 248 -65t229 65l203 -198zM1010 641q0 -47 -15.5 -89t-43 -74t-66.5 -50t-84 -18q-94 0 -152.5 65.5t-58.5 163.5q0 104 54 166.5t159 62.5q98 0 152.5 -64.5t54.5 -162.5z" />
    <glyph glyph-name="FL00A5h" unicode="&#xa5;" horiz-adv-x="1700" 
d="M1579 483v-200h-287v-64q0 -219 -272 -219h-840v201h815q97 0 101 59v25l-269 -2v200h269v66h-643q-281 0 -281 217v526h205v-491q0 -53 102 -53h617v120h-271v201h271v223h196v-223h285v-201h-285v-385h287z" />
    <glyph glyph-name="egrave" unicode="&#xa6;" horiz-adv-x="1024" 
d="M588 408v-758h-150v758h150zM588 1432v-758h-150v758h150z" />
    <glyph glyph-name="FL00A7h" unicode="&#xa7;" 
d="M449 283q-281 0 -281 217v575q2 217 285 217h839v-200h-821q-102 0 -102 -64l80 -2h559q280 0 284 -203v-608q0 -215 -280 -215h-840v201h811q104 0 104 59l-4 25l-75 -2h-559zM979 492q80 0 98 32l-2 252q8 39 -96 39h-512q-82 0 -102 -33v-233q0 -57 102 -57h512z" />
    <glyph glyph-name="FL00A8h" unicode="&#xa8;" horiz-adv-x="821" 
d="M369 1409h-201v219h201v-219zM678 1409h-201v219h201v-219z" />
    <glyph glyph-name="FL00A9h" unicode="&#xa9;" horiz-adv-x="1573" 
d="M369 651v260q0 105 59 105h770q62 0 62 -105v-512q0 -102 -62 -102h-770q-59 0 -59 102v252zM981 1217h-598q-215 0 -215 -281v-559q0 -281 215 -281h858q219 0 219 281v559q0 281 -219 281h-260zM797 561h-142q-57 0 -57 33v127q0 31 57 31h451v108h-461
q-156 0 -156 -121v-170q0 -118 156 -118h461v110h-309z" />
    <glyph glyph-name="FL00AAh" unicode="&#xaa;" horiz-adv-x="846" 
d="M616 580h113v589q0 121 -154 121h-307q-155 0 -155 -110h446q57 0 57 -33v-156h-503v-411h108v299h395v-299z" />
    <glyph glyph-name="FL00ABh" unicode="&#xab;" horiz-adv-x="1188" 
d="M860 473l187 145l-105 134l-328 -279l328 -280l105 129zM395 469l187 145l-105 134l-327 -279l327 -281l105 129z" />
    <glyph glyph-name="FL00ACh" unicode="&#xac;" horiz-adv-x="1040" 
d="M725 549v-264h201l-2 463h-752v-201z" />
    <glyph glyph-name="FL00ADh" unicode="&#xad;" horiz-adv-x="1040" 
d="M924 643v105h-752v-201h752v96z" />
    <glyph glyph-name="FL00AEh" unicode="&#xae;" horiz-adv-x="1573" 
d="M369 651v-252q0 -102 59 -102h770q62 0 62 102v512q0 105 -62 105h-770q-59 0 -59 -105v-260zM981 1217h260q219 0 219 -281v-559q0 -281 -219 -281h-858q-215 0 -215 281v559q0 281 215 281h598zM618 449h-108v288q0 121 156 121h460v-108h-450q-58 0 -58 -31v-270z" />
    <glyph glyph-name="ccedilla" unicode="&#xaf;" horiz-adv-x="1024" 
d="M236 1067v147h552v-147h-552z" />
    <glyph glyph-name="FL00B0h" unicode="&#xb0;" horiz-adv-x="776" 
d="M246 582h297q159 0 159 127v454q0 129 -159 129h-297q-160 0 -160 -129v-454q0 -127 160 -127zM530 713h-270q-43 0 -43 18v412q0 18 43 18h270q43 0 43 -18v-412q0 -18 -43 -18z" />
    <glyph glyph-name="FL00B1h" unicode="&#xb1;" horiz-adv-x="1040" 
d="M449 549h-277v199h279v264h200v-264h273v-199h-273v-268h-202v268zM930 104v-96h-752v201h752v-105z" />
    <glyph glyph-name="FL00B2h" unicode="&#xb2;" horiz-adv-x="770" 
d="M399 690h310v-110h-617v286q0 125 170 125h281q57 0 57 29v127q0 33 -57 33h-451v110h463q154 0 154 -121v-157q0 -133 -166 -133h-281q-57 0 -57 -29v-160h194z" />
    <glyph glyph-name="FL00B3h" unicode="&#xb3;" horiz-adv-x="770" 
d="M412 694h143q57 0 57 33v158h-508v110h508v156q0 33 -57 33h-451v110h463q154 0 154 -120v-472q0 -118 -154 -118h-463v110h308z" />
    <glyph glyph-name="FL00B4h" unicode="&#xb4;" horiz-adv-x="565" 
d="M205 877l82 415h200v-221h-92z" />
    <glyph glyph-name="FL00B5h" unicode="&#xb5;" horiz-adv-x="1606" 
d="M731 201h-260q-102 0 -102 59v483h-197v-526v-485h197v268h643h491v209h-211v534h-205v-483q0 -59 -104 -59h-252z" />
    <glyph glyph-name="FL00B6h" unicode="&#xb6;" horiz-adv-x="1468" 
d="M832 1096l1 -1096h-197v584h-241q-219 8 -231 216v280q4 208 229 212h684q278 0 278 -217v-1075h-203v1040q0 54 -104 54z" />
    <glyph glyph-name="FL00B7h" unicode="&#xb7;" horiz-adv-x="475" 
d="M168 600h201v-209h-201v209z" />
    <glyph glyph-name="FL00B8h" unicode="&#xb8;" horiz-adv-x="475" 
d="M268 0l88 -360h-200v219h67l-80 141h125z" />
    <glyph glyph-name="FL00B9h" unicode="&#xb9;" horiz-adv-x="322" 
d="M203 995v301h-109v-710h109v409z" />
    <glyph glyph-name="FL00BAh" unicode="&#xba;" horiz-adv-x="776" 
d="M246 582h297q159 0 159 127v454q0 129 -159 129h-297q-160 0 -160 -129v-454q0 -127 160 -127zM530 713h-270q-43 0 -43 18v412q0 18 43 18h270q43 0 43 -18v-412q0 -18 -43 -18z" />
    <glyph glyph-name="FL00BBh" unicode="&#xbb;" horiz-adv-x="1188" 
d="M336 473l-186 145l104 134l328 -279l-328 -280l-104 129zM801 469l-187 145l105 134l328 -279l-328 -281l-105 129z" />
    <glyph glyph-name="FL00BCh" unicode="&#xbc;" horiz-adv-x="1733" 
d="M369 0l923 1292h-205l-915 -1292h197zM356 926v301h-108v-711h108v410zM1079 752h-112v-289q0 -121 155 -121h353v-301h108v711h-108v-299h-338q-58 0 -58 28v271z" />
    <glyph glyph-name="FL00BDh" unicode="&#xbd;" horiz-adv-x="1692" 
d="M369 0l923 1292h-205l-915 -1292h197zM356 926v301h-108v-711h108v410zM1094 158v159q0 29 57 29h281q165 0 165 133v158q0 121 -153 121h-463v-111h451q57 0 57 -33v-127q0 -28 -57 -28h-281q-170 0 -170 -125v-287h616v111h-309h-194z" />
    <glyph glyph-name="FL00BEh" unicode="&#xbe;" horiz-adv-x="2034" 
d="M680 0l924 1292h-205l-916 -1292h197zM1391 752h-113v-289q0 -121 156 -121h352v-301h108v711h-108v-299h-338q-57 0 -57 28v271zM184 647v-110h463q154 0 154 118v471q0 121 -154 121h-463v-110h451q57 0 57 -33v-156h-508v-110h508v-158q0 -33 -57 -33h-143h-308z" />
    <glyph glyph-name="FL00BFh" unicode="&#xbf;" 
d="M1286 874v-104q0 -227 -307 -227h-512q-105 0 -105 -54v-229q0 -61 105 -61h819v-201h-840q-280 0 -280 219v289q0 239 301 239h512q102 0 102 54v75h205zM1090 1290h200v-219h-200v219z" />
    <glyph glyph-name="FL00C0h" unicode="&#xc0;" 
d="M1087 0v545h-718v-545h-197v748h915v282q0 62 -104 62h-811q0 200 281 200h559q280 0 280 -219v-1073h-205zM868 1348l-196 151h-92l-5 221h205z" />
    <glyph glyph-name="FL00C1h" unicode="&#xc1;" 
d="M1087 0v545h-718v-545h-197v748h915v282q0 62 -104 62h-811q0 200 281 200h559q280 0 280 -219v-1073h-205zM563 1348l88 372h201v-221h-92z" />
    <glyph glyph-name="FL00C2h" unicode="&#xc2;" 
d="M1087 0h205v1073q0 219 -280 219h-559q-281 0 -281 -200h811q104 0 104 -62v-282h-915v-748h197v545h718v-545zM735 1552l152 -188l131 106l-283 326l-278 -326l133 -106z" />
    <glyph glyph-name="FL00C3h" unicode="&#xc3;" 
d="M1087 0v545h-718v-545h-197v748h915v282q0 62 -104 62h-811q0 200 281 200h559q280 0 280 -219v-1073h-205zM889 1851h194v-110q0 -205 -280 -205h-144q-102 0 -102 -51v-76h-197v107q0 204 281 204h143q103 0 105 45v86z" />
    <glyph glyph-name="FL00C4h" unicode="&#xc4;" 
d="M1087 0h205v1073q0 219 -280 219h-559q-281 0 -281 -200h811q104 0 104 -62v-282h-915v-748h197v545h718v-545zM668 1413v219h-201v-219h201zM977 1413v219h-201v-219h201z" />
    <glyph glyph-name="FL00C5h" unicode="&#xc5;" 
d="M1087 0v545h-718v-545h-197v748h915v282q0 62 -104 62h-811q0 200 281 200h559q280 0 280 -219v-1073h-205zM647 1382q-90 0 -90 64v219q0 61 90 61h166q90 0 90 -61v-219q0 -64 -90 -64h-166zM797 1458q20 0 20 8v170q0 9 -20 9h-131q-21 0 -21 -9v-170q0 -8 21 -8h131z
" />
    <glyph glyph-name="FL00C6h" unicode="&#xc6;" horiz-adv-x="2343" 
d="M2214 199h-821q-88 0 -101 43v303h922v200h-922v299q13 46 101 46h821v200h-840q-110 0 -180 -35q-68 37 -182 37h-559q-281 0 -281 -200h811q104 0 104 -62v-282h-915v-748h197v545h718v-545h205v2q19 -2 39.5 -3t42.5 -1h840v201z" />
    <glyph glyph-name="FL00C7h" unicode="&#xc7;" 
d="M1288 201h-817q-102 0 -102 59v770q0 62 102 62h817v200h-839q-281 0 -281 -219v-858q0 -215 281 -215h253l76 -133h-67v-219h200l-86 352h463v201z" />
    <glyph glyph-name="FL00C8h" unicode="&#xc8;" 
d="M731 201h-260q-102 0 -102 59v287h923v201h-923v282q0 62 102 62h821v200h-839q-281 0 -281 -219v-858q0 -215 281 -215h839v201h-561zM889 1348l-88 372h-205l2 -221h92z" />
    <glyph glyph-name="FL00C9h" unicode="&#xc9;" 
d="M731 201h561v-201h-839q-281 0 -281 215v858q0 219 281 219h839v-200h-821q-102 0 -102 -62v-282h923v-201h-923v-287q0 -59 102 -59h260zM664 1348l88 372h200v-221h-92z" />
    <glyph glyph-name="FL00CAh" unicode="&#xca;" 
d="M731 201h-260q-102 0 -102 59v287h923v201h-923v282q0 62 102 62h821v200h-839q-281 0 -281 -219v-858q0 -215 281 -215h839v201h-561zM743 1552l152 -188l129 106l-281 326l-278 -326l133 -106z" />
    <glyph glyph-name="FL00CBh" unicode="&#xcb;" 
d="M731 201h561v-201h-839q-281 0 -281 215v858q0 219 281 219h839v-200h-821q-102 0 -102 -62v-282h923v-201h-923v-287q0 -59 102 -59h260zM668 1413h-201v219h201v-219zM977 1413h-201v219h201v-219z" />
    <glyph glyph-name="FL00CCh" unicode="&#xcc;" horiz-adv-x="475" 
d="M369 743v549h-197v-1292h197v743zM449 1348l-89 372h-204l4 -221h92z" />
    <glyph glyph-name="FL00CDh" unicode="&#xcd;" horiz-adv-x="475" 
d="M369 743v549h-197v-1292h197v743zM125 1348l197 151h92l-2 221h-199z" />
    <glyph glyph-name="FL00CEh" unicode="&#xce;" horiz-adv-x="475" 
d="M369 743v549h-197v-1292h197v743zM285 1552l149 -188l131 106l-280 326l-281 -326l133 -106z" />
    <glyph glyph-name="FL00CFh" unicode="&#xcf;" horiz-adv-x="475" 
d="M369 743v-743h-197v1292h197v-549zM203 1407h-201v219h201v-219zM512 1407h-201v219h201v-219z" />
    <glyph glyph-name="FL00D0h" unicode="&#xd0;" horiz-adv-x="1683" 
d="M915 735h-280v355h614q105 0 105 -62v-770q0 -59 -105 -59h-508v-201h533q280 0 280 215v858q0 219 -280 219h-840v-555h-270v-200h270v-537h201v537h280v200z" />
    <glyph glyph-name="FL00D1h" unicode="&#xd1;" 
d="M1087 0h201v1073q0 219 -280 219h-559q-281 0 -281 -219v-1073h201v1030q0 62 102 62h512q104 0 104 -62v-1030zM897 1851v-86q-2 -45 -104 -45h-144q-280 0 -280 -204v-111h194v80q2 51 105 51h143q281 0 281 205v110h-195z" />
    <glyph glyph-name="FL00D2h" unicode="&#xd2;" 
d="M731 201h-260q-102 0 -102 59v770q0 62 102 62h512q104 0 104 -62v-770q0 -59 -104 -59h-252zM735 0h273q280 0 280 215v858q0 219 -280 219h-559q-281 0 -281 -219v-858q0 -215 281 -215h286zM885 1348l-88 372h-205l2 -221h92z" />
    <glyph glyph-name="FL00D3h" unicode="&#xd3;" 
d="M731 201h-260q-102 0 -102 59v770q0 62 102 62h512q104 0 104 -62v-770q0 -59 -104 -59h-252zM735 0h273q280 0 280 215v858q0 219 -280 219h-559q-281 0 -281 -219v-858q0 -215 281 -215h286zM592 1348l199 151h92l-2 221h-201z" />
    <glyph glyph-name="FL00D4h" unicode="&#xd4;" 
d="M731 201h-260q-102 0 -102 59v770q0 62 102 62h512q104 0 104 -62v-770q0 -59 -104 -59h-252zM735 0h273q280 0 280 215v858q0 219 -280 219h-559q-281 0 -281 -219v-858q0 -215 281 -215h286zM731 1552l152 -188l129 106l-281 326l-278 -326l133 -106z" />
    <glyph glyph-name="FL00D5h" unicode="&#xd5;" 
d="M731 201h-260q-102 0 -102 59v770q0 62 102 62h512q104 0 104 -62v-770q0 -59 -104 -59h-252zM735 0h273q280 0 280 215v858q0 219 -280 219h-559q-281 0 -281 -219v-858q0 -215 281 -215h286zM897 1851v-86q-2 -45 -104 -45h-144q-280 0 -280 -204v-111h194v80
q2 51 105 51h143q281 0 281 205v110h-195z" />
    <glyph glyph-name="FL00D6h" unicode="&#xd6;" 
d="M731 201h-260q-102 0 -102 59v770q0 62 102 62h512q104 0 104 -62v-770q0 -59 -104 -59h-252zM735 0h273q280 0 280 215v858q0 219 -280 219h-559q-281 0 -281 -219v-858q0 -215 281 -215h286zM676 1413v219h-201v-219h201zM989 1413v219h-201v-219h201z" />
    <glyph glyph-name="FL00D7h" unicode="&#xd7;" 
d="M451 125v-125h-281v190l840 426v127h280v-188zM1059 307l231 -117v-190h-280v129l-164 80zM401 436l-231 119v188h281v-127l163 -79z" />
    <glyph glyph-name="FL00D8h" unicode="&#xd8;" 
d="M297 0l-133 -2l53 74q-49 51 -49 143v858q0 219 281 219h559l276 -2l-49 -69q53 -54 53 -148v-858q0 -215 -280 -215h-559h-152zM983 201q104 0 104 59v754l-581 -813h477zM369 1030v-743l569 805h-467q-102 0 -102 -62z" />
    <glyph glyph-name="FL00D9h" unicode="&#xd9;" 
d="M731 201h-260q-102 0 -102 59v1032h-201v-1077q0 -215 281 -215h559q280 0 280 215v1077h-201v-1032q0 -59 -104 -59h-252zM885 1348l-88 372h-205l2 -221h92z" />
    <glyph glyph-name="FL00DAh" unicode="&#xda;" 
d="M731 201h-260q-102 0 -102 59v1032h-201v-1077q0 -215 281 -215h559q280 0 280 215v1077h-201v-1032q0 -59 -104 -59h-252zM580 1348l198 151h92l-2 221h-200z" />
    <glyph glyph-name="FL00DBh" unicode="&#xdb;" 
d="M731 201h-260q-102 0 -102 59v1032h-201v-1077q0 -215 281 -215h559q280 0 280 215v1077h-201v-1032q0 -59 -104 -59h-252zM723 1552l151 -188l130 106l-281 326l-279 -326l134 -106z" />
    <glyph glyph-name="FL00DCh" unicode="&#xdc;" 
d="M731 201h-260q-102 0 -102 59v1032h-201v-1077q0 -215 281 -215h559q280 0 280 215v1077h-201v-1032q0 -59 -104 -59h-252zM659 1413v219h-200v-219h200zM977 1413v219h-201v-219h201z" />
    <glyph glyph-name="FL00DDh" unicode="&#xdd;" 
d="M995 201h-815v-201h840q272 0 272 219v1073h-196v-544h-617q-102 0 -102 53v491h-205v-526q0 -217 281 -217h643v-273q-2 -75 -101 -75zM664 1348l196 151h92v221h-200z" />
    <glyph glyph-name="FL00DEh" unicode="&#xde;" 
d="M369 995l645 -2q284 0 284 -217v-315q0 -209 -274 -213h-655v-248h-195v449h811q105 0 105 53v229q0 62 -105 62h-811l-2 499h197v-297z" />
    <glyph glyph-name="FL00DFh" unicode="&#xdf;" 
d="M727 1092h256q104 0 104 -62v-282h-915v-895h197v692h718v-285q0 -59 -104 -59l-362 4v-205h391q280 0 280 215v858q0 219 -280 219h-840v-200h555z" />
    <glyph glyph-name="FL00E0h" unicode="&#xe0;" 
d="M864 205v-205h-411q-281 0 -281 217v309q0 217 281 217h839v-743h-205v545h-616q-102 0 -102 -53v-232q0 -53 75 -53q5 0 13 -1t16 -1h391zM877 899l-197 152h-92v221h200z" />
    <glyph glyph-name="FL00E1h" unicode="&#xe1;" 
d="M864 205v-205h-411q-281 0 -281 217v309q0 217 281 217h839v-743h-205v545h-616q-102 0 -102 -53v-232q0 -53 75 -53q5 0 13 -1t16 -1h391zM588 899l90 373h199v-221h-93z" />
    <glyph glyph-name="FL00E2h" unicode="&#xe2;" 
d="M864 205v-205h-411q-281 0 -281 217v309q0 217 281 217h839v-743h-205v545h-616q-102 0 -102 -53v-232q0 -53 75 -53q5 0 13 -1t16 -1h391zM752 1071l-146 -186l-133 104l279 328l280 -328l-129 -104z" />
    <glyph glyph-name="FL00E3h" unicode="&#xe3;" 
d="M864 205v-205h-411q-281 0 -281 217v309q0 217 281 217h839v-743h-205v545h-616q-102 0 -102 -53v-232q0 -53 75 -53q5 0 13 -1t16 -1h391zM918 1327h194v-110q0 -205 -281 -205h-143q-102 0 -104 -51v-80h-195v110q0 205 281 205h143q102 0 105 45v86z" />
    <glyph glyph-name="FL00E4h" unicode="&#xe4;" 
d="M864 205v-205h-411q-281 0 -281 217v309q0 217 281 217h839v-743h-205v545h-616q-102 0 -102 -53v-232q0 -53 75 -53q5 0 13 -1t16 -1h391zM686 963h-201v219h201v-219zM1004 963h-201v219h201v-219z" />
    <glyph glyph-name="FL00E5h" unicode="&#xe5;" 
d="M864 205v-205h-411q-281 0 -281 217v309q0 217 281 217h839v-743h-205v545h-616q-102 0 -102 -53v-232q0 -53 75 -53q5 0 13 -1t16 -1h391zM825 993q21 0 21 8v170q0 11 -21 11h-131q-20 0 -20 -11v-170q0 -10 18 -6zM756 920l-80 -2q-90 0 -90 63v219q0 62 90 62h166
q90 0 90 -62v-219q0 -63 -90 -63z" />
    <glyph glyph-name="FL00E6h" unicode="&#xe6;" horiz-adv-x="2337" 
d="M2218 201h-821q-103 0 -103 59v232q0 51 103 55h475l-406 -254h346l406 262q0 188 -281 188h-559q-47 0 -86 -6v6h-839q-281 0 -281 -217v-309q0 -217 281 -217h411v209h-393q-10 -2 -27 -2q-75 0 -75 53v232q0 53 102 53h616v-545h205v6q39 -6 86 -6h840v201z" />
    <glyph glyph-name="FL00E7h" unicode="&#xe7;" 
d="M692 0l80 -141h-67v-219h200l-88 360h475v201h-821q-102 0 -102 59v232q0 55 102 55h821v196h-839q-281 0 -281 -217v-309q0 -217 281 -217h239z" />
    <glyph glyph-name="FL00E8h" unicode="&#xe8;" 
d="M731 201h-260q-102 0 -102 59v232q0 51 102 55h475l-405 -254h346l405 262q0 188 -280 188h-559q-281 0 -281 -217v-309q0 -217 281 -217h839v201h-561zM877 899l-89 373h-200v-221h92z" />
    <glyph glyph-name="FL00E9h" unicode="&#xe9;" 
d="M731 201h-260q-102 0 -102 59v232q0 51 102 55h475l-405 -254h346l405 262q0 188 -280 188h-559q-281 0 -281 -217v-309q0 -217 281 -217h839v201h-561zM588 899l196 152h93v221h-199z" />
    <glyph glyph-name="FL00EAh" unicode="&#xea;" 
d="M731 201h-260q-102 0 -102 59v232q0 51 102 55h475l-405 -254h346l405 262q0 188 -280 188h-559q-281 0 -281 -217v-309q0 -217 281 -217h839v201h-561zM739 1071l152 -186l129 104l-281 328l-278 -328l133 -104z" />
    <glyph glyph-name="FL00EBh" unicode="&#xeb;" 
d="M731 201h-260q-102 0 -102 59v232q0 51 102 55h475l-405 -254h346l405 262q0 188 -280 188h-559q-281 0 -281 -217v-309q0 -217 281 -217h839v201h-561zM670 963v219h-201v-219h201zM979 963v219h-201v-219h201z" />
    <glyph glyph-name="FL00ECh" unicode="&#xec;" horiz-adv-x="475" 
d="M172 743v-743h197v743h-197zM436 920l-88 372h-201v-221h93z" />
    <glyph glyph-name="FL00EDh" unicode="&#xed;" horiz-adv-x="475" 
d="M172 743v-743h197v743h-197zM125 920l197 151h92v221h-201z" />
    <glyph glyph-name="FL00EEh" unicode="&#xee;" horiz-adv-x="514" 
d="M172 743v-743h197v743h-197zM270 1071l154 -186l129 104l-283 328l-276 -328l133 -104z" />
    <glyph glyph-name="FL00EFh" unicode="&#xef;" horiz-adv-x="535" 
d="M172 743v-743h197v743h-197zM29 1047h196v204h-196v-204zM319 1047h197v204h-197v-204z" />
    <glyph glyph-name="FL00F0h" unicode="&#xf0;" 
d="M731 201h-252q-104 0 -104 59v232q0 53 104 53h615v-285q0 -59 -103 -59h-260zM727 1092h264q103 0 103 -62v-282h-615q-309 0 -309 -228v-305q0 -215 281 -215h559q280 0 280 215v858q0 219 -280 219h-840v-200h358v-240h201z" />
    <glyph glyph-name="FL00F1h" unicode="&#xf1;" 
d="M1087 0h205v526q0 217 -280 217h-559q-281 0 -281 -217v-526h197v492q0 53 102 53h512q104 0 104 -53v-492zM918 1327v-86q-3 -45 -105 -45h-143q-281 0 -281 -205v-110h195v80q2 51 104 51h143q281 0 281 205v110h-194z" />
    <glyph glyph-name="FL00F2h" unicode="&#xf2;" 
d="M731 201h-260q-102 0 -102 59v232q0 53 102 53h512q104 0 104 -53v-232q0 -59 -104 -59h-252zM739 0h273q280 0 280 217v309q0 217 -280 217h-559q-281 0 -281 -217v-309q0 -217 281 -217h286zM877 899l-89 373h-200v-221h92z" />
    <glyph glyph-name="FL00F3h" unicode="&#xf3;" 
d="M731 201h-260q-102 0 -102 59v232q0 53 102 53h512q104 0 104 -53v-232q0 -59 -104 -59h-252zM739 0h273q280 0 280 217v309q0 217 -280 217h-559q-281 0 -281 -217v-309q0 -217 281 -217h286zM588 899l196 152h93v221h-201z" />
    <glyph glyph-name="FL00F4h" unicode="&#xf4;" 
d="M731 201h-260q-102 0 -102 59v232q0 53 102 53h512q104 0 104 -53v-232q0 -59 -104 -59h-252zM739 0h273q280 0 280 217v309q0 217 -280 217h-559q-281 0 -281 -217v-309q0 -217 281 -217h286zM739 1071l152 -186l129 104l-281 328l-278 -328l133 -104z" />
    <glyph glyph-name="FL00F5h" unicode="&#xf5;" 
d="M731 201h-260q-102 0 -102 59v232q0 53 102 53h512q104 0 104 -53v-232q0 -59 -104 -59h-252zM739 0h273q280 0 280 217v309q0 217 -280 217h-559q-281 0 -281 -217v-309q0 -217 281 -217h286zM901 1327v-86q-2 -45 -104 -45h-144q-280 0 -280 -205v-110h194v80
q2 51 105 51h143q281 0 281 205v110h-195z" />
    <glyph glyph-name="FL00F6h" unicode="&#xf6;" 
d="M731 201h-260q-102 0 -102 59v232q0 53 102 53h512q104 0 104 -53v-232q0 -59 -104 -59h-252zM739 0h273q280 0 280 217v309q0 217 -280 217h-559q-281 0 -281 -217v-309q0 -217 281 -217h286zM670 963v219h-201v-219h201zM979 963v219h-201v-219h201z" />
    <glyph glyph-name="FL00F7h" unicode="&#xf7;" horiz-adv-x="1040" 
d="M924 643v105h-752v-201h377h375v96zM649 176v221h-200v-221h200zM649 1133h-200v-222h200v222z" />
    <glyph glyph-name="FL00F8h" unicode="&#xf8;" 
d="M453 0h559q280 0 280 217v309q0 88 -49 141.5t-158 71.5q-16 2 -34.5 3t-38.5 1h-559q-281 0 -281 -217v-309q0 -166 162 -205l-4 -6q45 -4 71.5 -5t51.5 -1zM983 201h-303l274 344h29q104 0 104 -53v-232q0 -59 -104 -59zM369 260v232q0 53 102 53h281l-271 -344h-10
q-102 0 -102 59z" />
    <glyph glyph-name="FL00F9h" unicode="&#xf9;" 
d="M731 201h-260q-102 0 -102 59v483h-197v-526q0 -217 281 -217h559q280 0 280 217v526h-205v-483q0 -59 -104 -59h-252zM877 899l-89 373h-200v-221h92z" />
    <glyph glyph-name="FL00FAh" unicode="&#xfa;" 
d="M731 201h-260q-102 0 -102 59v483h-197v-526q0 -217 281 -217h559q280 0 280 217v526h-205v-483q0 -59 -104 -59h-252zM588 899l196 152h93v221h-199z" />
    <glyph glyph-name="FL00FBh" unicode="&#xfb;" 
d="M731 201h-260q-102 0 -102 59v483h-197v-526q0 -217 281 -217h559q280 0 280 217v526h-205v-483q0 -59 -104 -59h-252zM739 1071l152 -186l129 104l-281 328l-278 -328l133 -104z" />
    <glyph glyph-name="FL00FCh" unicode="&#xfc;" 
d="M731 201h-260q-102 0 -102 59v483h-197v-526q0 -217 281 -217h559q280 0 280 217v526h-205v-483q0 -59 -104 -59h-252zM670 963v219h-201v-219h201zM979 963v219h-201v-219h201z" />
    <glyph glyph-name="FL00FDh" unicode="&#xfd;" 
d="M1096 743v-544h-617q-102 0 -102 53v491h-205v-526q0 -217 281 -217h643v-549h196v1292h-196zM588 899l196 152h93v221h-201z" />
    <glyph glyph-name="FL00FEh" unicode="&#xfe;" 
d="M369 995l645 -2q284 0 284 -217v-315q0 -209 -274 -213h-655v-248h-195v449h811q105 0 105 53v229q0 62 -105 62h-811l-2 499h197v-297z" />
    <glyph glyph-name="FL00FFh" unicode="&#xff;" 
d="M1096 743h196v-1292h-196v549h-643q-281 0 -281 217v526h205v-491q0 -53 102 -53h617v544zM678 963h-201v219h201v-219zM995 963h-200v219h200v-219z" />
    <glyph glyph-name="FL0152h" unicode="&#x152;" horiz-adv-x="2372" 
d="M2241 199h-822q-102 0 -102 59v287h924v200h-924v283q0 62 102 62h822v200h-840q-64 0 -113 -12v14h-839q-281 0 -281 -219v-858q0 -215 281 -215h839v8q25 -4 52.5 -7t60.5 -3h840v201zM1120 201h-649q-102 0 -102 59v770q0 62 102 62h649v-891z" />
    <glyph glyph-name="FL0153h" unicode="&#x153;" horiz-adv-x="2343" 
d="M2224 201h-821q-103 0 -103 59v232q0 51 103 55h475l-405 -254h346l405 262q0 188 -280 188h-560q-57 0 -92 -8v8h-839q-281 0 -281 -217v-309q0 -217 281 -217h839v6q39 -6 92 -6h840v201zM1104 201h-633q-102 0 -102 59v232q0 55 102 55h633v-346z" />
    <glyph glyph-name="FL0160h" unicode="&#x160;" 
d="M731 201l-559 4v-205h840q280 0 280 215v305q0 228 -309 228h-512q-102 0 -102 53v229q0 62 102 62h821v200h-839q-281 0 -281 -219v-289q0 -239 299 -239h512q104 0 104 -53v-232q0 -59 -104 -59h-252zM723 1608l-145 188l-134 -106l279 -326l281 326l-130 106z" />
    <glyph glyph-name="FL0161h" unicode="&#x161;" 
d="M172 199h672l-672 356q0 188 281 188h839v-196h-676l676 -357q0 -190 -280 -190h-840v199zM739 1130l152 187l129 -105l-281 -327l-278 327l133 105z" />
    <glyph glyph-name="FL0178h" unicode="&#x178;" 
d="M995 201q99 0 101 75v273h-643q-281 0 -281 217v526h205v-491q0 -53 102 -53h617v544h196v-1073q0 -219 -272 -219h-840v201h815zM676 1413h-201v219h201v-219zM989 1413h-201v219h201v-219z" />
    <glyph glyph-name="FL017Dh" unicode="&#x17d;" 
d="M479 201l813 872v219h-1120v-200h832l-832 -877v-215h1120v199zM723 1608l-145 188l-134 -106l279 -326l281 326l-130 106z" />
    <glyph glyph-name="FL017Eh" unicode="&#x17e;" 
d="M1292 199h-671l671 356v188h-1120v-196h678l-678 -357v-190h1120v199zM739 1130l-145 187l-133 -105l278 -327l281 327l-129 105z" />
    <glyph glyph-name="FL0192h" unicode="&#x192;" 
d="M731 543h561v200h-839q-279 0 -279 -200h557zM1292 201h-1120v-533h-219v-217h219h197v549h923v201z" />
    <glyph glyph-name="FL02C6h" unicode="&#x2c6;" horiz-adv-x="729" 
d="M381 1548l-148 -188l-133 106l281 326l281 -326l-132 -106z" />
    <glyph glyph-name="FL02DCh" unicode="&#x2dc;" horiz-adv-x="1020" 
d="M719 1851v-86q-2 -45 -105 -45h-143q-281 0 -281 -204v-111h195v80q2 51 104 51h144q280 0 280 205v110h-194z" />
    <glyph glyph-name="Eacute" unicode="&#x2013;" horiz-adv-x="1024" 
d="M0 473v143h1024v-143h-1024z" />
    <glyph glyph-name="Ntilde" unicode="&#x2014;" horiz-adv-x="2048" 
d="M41 616v-143h1966v143h-1966z" />
    <glyph glyph-name="aacute" unicode="&#x2018;" horiz-adv-x="475" 
d="M369 1292v-495h-201v219h92z" />
    <glyph glyph-name="agrave" unicode="&#x2019;" horiz-adv-x="475" 
d="M369 797v495h-201v-221h92z" />
    <glyph glyph-name="adieresis" unicode="&#x201a;" horiz-adv-x="475" 
d="M369 -276v495h-201v-219h92z" />
    <glyph glyph-name="Odieresis" unicode="&#x201c;" horiz-adv-x="805" 
d="M696 1292v-495h-200v219h92zM369 1292v-495h-201v219h92z" />
    <glyph glyph-name="Udieresis" unicode="&#x201d;" horiz-adv-x="805" 
d="M696 797v495h-200v-221h92zM369 797v495h-201v-221h92z" />
    <glyph glyph-name="FL201Eh" unicode="&#x201e;" horiz-adv-x="799" 
d="M369 -276l-109 276h-92v219h201v-495zM674 -276l-109 276h-92v219h201v-495z" />
    <glyph glyph-name="FL2020h" unicode="&#x2020;" 
d="M637 1290v-315h-467v-201h467v-774h194v774h459v201h-459v315h-194z" />
    <glyph glyph-name="FL2021h" unicode="&#x2021;" 
d="M637 1290v-315h-467v-201h467v-272h-469v-201h469v-301h194v301h457v201h-457v272h459v201h-459v315h-194z" />
    <glyph glyph-name="FL2022h" unicode="&#x2022;" 
d="M735 0h273q280 0 280 215v858q0 219 -280 219h-559q-281 0 -281 -219v-858q0 -215 281 -215h286z" />
    <glyph glyph-name="FL2026h" unicode="&#x2026;" horiz-adv-x="1110" 
d="M369 0h-201v219h201v-219zM678 0h-201v219h201v-219zM995 0h-200v219h200v-219z" />
    <glyph glyph-name="FL2030h" unicode="&#x2030;" horiz-adv-x="2671" 
d="M485 0l916 1292h205l-924 -1292h-197zM371 543q-160 0 -160 127v454q0 129 160 129h297q159 0 159 -129v-454q0 -127 -159 -127h-297zM655 674q43 0 43 18v412q0 18 -43 18h-270q-43 0 -43 -18v-412q0 -18 43 -18h270zM1364 16q-160 0 -160 127v455q0 129 160 129h297
q160 0 160 -129v-455q0 -127 -160 -127h-297zM1649 147q43 0 43 19v412q0 18 -43 18h-271q-43 0 -43 -18v-412q0 -19 43 -19h271zM2083 16q-160 0 -160 127v455q0 129 160 129h297q160 0 160 -129v-455q0 -127 -160 -127h-297zM2367 147q43 0 43 19v412q0 18 -43 18h-270
q-43 0 -43 -18v-412q0 -19 43 -19h270z" />
    <glyph glyph-name="FL2039h" unicode="&#x2039;" horiz-adv-x="715" 
d="M397 473l187 145l-105 134l-327 -279l327 -280l105 129z" />
    <glyph glyph-name="FL203Ah" unicode="&#x203a;" horiz-adv-x="715" 
d="M336 473l-186 145l104 134l328 -279l-328 -280l-104 129z" />
    <glyph glyph-name="FL20ACh" unicode="&#x20ac;" 
d="M1085 -2h201v311l-469 981h-194l-457 -981v-311h919z" />
    <glyph glyph-name="FL2122h" unicode="&#x2122;" horiz-adv-x="1593" 
d="M719 1180v110h-617v-110h617zM360 1116v-536h107v536h-107zM1143 1180h174q57 0 57 -31v-571h111v591q0 119 -154 119h-375q-155 0 -155 -119v-591h108v571q0 31 58 31h176zM1090 1114v-536h108v536h-108z" />
    <glyph glyph-name="iacute" unicode="&#x2219;" horiz-adv-x="678" 
 />
    </font>
</defs>
</svg>
